> > >

Post New Thread  Reply
 
Thread Tools
Old 3 Weeks Ago, 01:04 AM   #29
Elder
Join Date: Feb 2016
Posts: 4,067




The Marshall Tucker Band - Long Hard Ride
1976 | RAMBLIN RECORDS
Country Rock, Southern Rock | Flac (tracks, .cue, log) | 38:21 | 265 Mb


Tracklist:

01. Long Hard Ride (3:54)
02. Property Line (3:02)
03. Am I The Kind Of Man (4:27)
04. Walkin' The Streets Alone (5:10)
05. Windy City Blues (4:58)
06. Holding On To You (3:52)
07. You Say You Love Me (4:02)
08. You Don't Live Forever (4:02)
09. If I Could See You One Last Time (Live, Bonus Track) (4:55)


Download:

djukajlo is offline   Reply With Quote
Old 3 Weeks Ago, 01:06 AM   #30
Elder
Join Date: Feb 2016
Posts: 4,067




Sheryl Crow - Be Myself (Target Exclusive) (2017)
XLD Rip | FLAC (tracks+log+.cue) - 366 Mb | 00:59:02
Country, Singer-Songwriter, Pop Rock, Female Vocal | Label: Wylie Songs, Warner Bros. Records


Tracklist:

01. Alone in the Dark (03:40)
02. Halfway There (03:59)
03. Long Way Back (05:07)
04. Be Myself (04:22)
05. Roller Skate (03:19)
06. Love Will Save the Day (04:58)
07. Strangers Again (03:51)
08. Rest of Me (03:52)
09. Heartbeat Away (05:35)
10. Grow Up (03:27)
11. Woo Woo (03:14)
12 Disappearing World (04:18)
13 The World You Make (04:25)
14 Long Way Back (Acoustic Version) (04:47)


Download:


Last edited by djukajlo; 3 Weeks Ago at 01:15 AM.
djukajlo is offline   Reply With Quote
Old 3 Weeks Ago, 01:07 AM   #31
Elder
Join Date: Feb 2016
Posts: 4,067




The Cranberries - Something Else (2017)
Flac (tracks) | 00:54:29 | 367 Mb
Acoustic, Pop Rock, Female Vocal | Label: BMG


"Something Else" is a brand new Acoustic album from Irish Alternative Rock band The Cranberries, which is slated to be released on April 28th, 2017 by BMG. The album contains acoustic versions of a handful of the band's favorite songs form their careers, it will be the second album release since the band reunited in 2009.


Tracklist:

1. Linger (Acoustic Version)
2. The Glory
3. Dreams (Acoustic Version)
4. When You're Gone (Acoustic Version)
5. Zombie (Acoustic Version)
6. Ridiculous Thoughts (Acoustic Version)
7. Rupture
8. Ode to My Family (Acoustic Version)
9. Free to Decide (Acoustic Version)
10. Just My Imagination (Acoustic Version)
11. Animal Instinct (Acoustic Version)
12. You & Me (Acoustic Version)
13. Why


Download:


Last edited by djukajlo; 7 Hours Ago at 10:50 AM.
djukajlo is offline   Reply With Quote
Old 3 Weeks Ago, 11:51 AM   #32
Elder
Join Date: Feb 2016
Posts: 4,067




John Mellencamp - Sad Clowns & Hillbillies (2017)
Flac (tracks) | 00:46:39 | 306 Mb
Folk Rock, Americana, Singer-Songwriter | Label: Republic Records, Universal Music Group


Tracklist:

01. Mobile Blue (3:02)
02. Battle of Angels (3:5
03. Grandview (feat. Martina McBride) (3:51)
04. Indigo Sunset (feat. Carlene Carter) (3:32)
05. What Kind of Man Am I (feat. Carlene Carter) (4:09)
06. All Night Talk Radio (5:0
07. Sugar Hill Mountain (feat. Carlene Carter) (3:07)
08. You Are Blind (3:20)
09. Damascus Road (feat. Carlene Carter) (4:15)
10. Early Bird Cafe (4:06)
11. Sad Clowns (2:41)
12. My Soul's Got Wings (feat. Carlene Carter) (2:57)
13. Easy Target (2:42)


Download:


Last edited by djukajlo; 2 Weeks Ago at 02:04 PM.
djukajlo is offline   Reply With Quote
Old 3 Weeks Ago, 11:53 AM   #33
Elder
Join Date: Feb 2016
Posts: 4,067



Bee Gees - Timeless: The All-Time Greatest Hits (2017)
Flac (tracks) | 01:18:20 | 514 Mb
Pop, Pop Rock, Soul | Label: Capitol Records, Universal Music


Tracklist:

01. Spicks and Specks (02:52)
02. New York Mining Disaster 1941 (02:09)
03. To Love Somebody (03:00)
04. Massachusetts (02:26)
05. Words (03:17)
06. I've Gotta Get a Message To You (03:03)
07. I Started a Joke (03:08)
08. Lonely Days (03:48)
09. How Can You Mend a Broken Heart (03:59)
10. Jive Talkin' (03:45)
11. Nights On Broadway (04:34)
12. Fanny (Be Tender With My Love) (04:04)
13. You Should Be Dancing (04:17)
14. How Deep Is Your Love (04:05)
15. Stayin' Alive (04:44)
16. Night Fever (03:32)
17. More Than a Woman (03:17)
18. Too Much Heaven (04:56)
19. Tragedy (05:02)
20. Love You Inside Out (04:11)
21. You Win Again (04:00)


Download:

djukajlo is offline   Reply With Quote
Old 3 Weeks Ago, 11:55 AM   #34
Elder
Join Date: Feb 2016
Posts: 4,067



Bob Dylan - Unravelled Tales (Live at Carnegie Hall, 26th October 1963) (2005)
Flac (tracks | log | cue) | Folk Rock | 01:18:40 | 2CD | 455 Mb


Tracklist:

CD1

01. The Times They Are A-Changin'
02. The Ballad Of Hollis Brown
03. Who Killed Davey Moore
04. Boots Of Spanish Leather
05. Talkin' John Birch Society Blues
06. Lay Down Your Weary Tune
07. Blowin' In The Wind
08. Percy's Song
09. Seven Curses
10. Walls Of Red Wing

CD2

01. North Country Blues
02. A Hard Rain's A-Gonna Fall
03. Talkin' World War III Blues
04. Don't Think Twice, It's Alright
05. With God On Our Side
06. Only A Pawn In Their Game
07. Masters Of War
08. The Lonesome Death Of Hattie Carroll
09. When The Ship Comes In


Download:

djukajlo is offline   Reply With Quote
Old 3 Weeks Ago, 11:56 AM   #35
Elder
Join Date: Feb 2016
Posts: 4,067



Fleetwood Mac - Bare Trees (1972-2017) [24-192 FLAC] [HD]
10 Tracks | Release: 1972-2017 | FLAC | 44.1 Khz, Joint-Stereo | 1.46 GB
Genre: Pop/Rock, Blues-Rock


Tracklist

01. Child Of Mine (05:29)
02. The Ghost (04:02)
03. Homeward Bound (03:23)
04. Sunny Side Of Heaven (03:11)
05. Bare Trees (05:06)
06. Sentimental Lady (04:36)
07. Danny's Chant (03:20)
08. Spare Me A Little Of Your Love (03:47)
09. Dust (02:40)
10. Thoughts On A Grey Day (01:43)


Download:


Last edited by djukajlo; 3 Weeks Ago at 01:37 AM.
djukajlo is offline   Reply With Quote
Old 3 Weeks Ago, 12:08 PM   #36
Elder
Join Date: Feb 2016
Posts: 4,067



Fleetwood Mac - Mystery To Me
2017 (1973-10-15) | Rhino / Warner Bros. Records
Pop/Rock, Blues Rock | FLAC (tracks) [24Bit/192kHz] | 48:09 | 1,87 Gb (Front Cover)


Tracklist:

01. Emerald Eyes (03:35)
02. Believe Me (04:12)
03. Just Crazy Love (03:27)
04. Hypnotized (04:50)
05. Forever (04:07)
06. Keep On Going (04:05)
07. The City (03:36)
08. Miles Away (03:51)
09. Somebody (05:03)
10. The Way I Feel (02:43)
11. For Your Love (03:46)
12. Why (04:55)

DR Peak RMS Duration Track

DR13 -0.10 dB -16.16 dB 3:35 01-Emerald Eyes
DR11 -0.10 dB -13.76 dB 4:12 02-Believe Me
DR11 -0.10 dB -13.08 dB 3:27 03-Just Crazy Love
DR11 -0.10 dB -13.01 dB 4:50 04-Hypnotized
DR13 -0.10 dB -15.28 dB 4:07 05-Forever
DR13 -0.10 dB -14.85 dB 4:05 06-Keep Going On
DR11 -0.10 dB -12.98 dB 3:36 07-The City
DR11 -0.10 dB -13.80 dB 3:51 08-Miles Away
DR13 -0.10 dB -15.20 dB 5:03 09-Somebody
DR12 -2.27 dB -17.74 dB 2:43 10-The Way I Feel
DR11 -0.10 dB -13.23 dB 3:46 11-For Your Love
DR11 -0.10 dB -15.98 dB 4:55 12-Why


Download:

djukajlo is offline   Reply With Quote
Old 3 Weeks Ago, 12:09 PM   #37
Elder
Join Date: Feb 2016
Posts: 4,067



Fleetwood Mac - Penguin
2017 (1973) | Rhino/Warner Bros. Records
Pop/Rock, Blues Rock | FLAC (tracks) [24Bit/192kHz] | 36:40 | 1,37 Gb (Front Cover)


Tracklist:

01. Remember Me (02:41)
02. Bright Fire (04:31)
03. Dissatisfied (03:41)
04. I'm a Road Runner (02:35)
05. The Derelict (02:43)
06. Revelation (04:55)
07. Did You Ever Love Me (03:39)
08. Night Watch (06:09)
09. Cought In The Rain (02:35)

DR Peak RMS Duration Track

DR11 -0.10 dB -12.19 dB 2:46 01-Remember Me
DR10 -0.10 dB -11.43 dB 4:34 02-Bright Fire
DR11 -0.10 dB -11.94 dB 3:44 03-Dissatisfied
DR10 -0.10 dB -10.99 dB 4:56 04-(I'm A) Road Runner
DR12 -0.10 dB -13.48 dB 2:50 05-The Derelict
DR10 -0.10 dB -12.21 dB 5:01 06-Revelation
DR11 -0.10 dB -12.41 dB 3:44 07-Did You Ever Love Me
DR10 -0.10 dB -12.49 dB 6:17 08-Night Watch
DR11 -0.28 dB -15.58 dB 2:48 09-Caught In The Rain


Download:


Last edited by djukajlo; 3 Weeks Ago at 01:30 AM.
djukajlo is offline   Reply With Quote
Old 3 Weeks Ago, 01:23 PM   #38
Elder
Join Date: Feb 2016
Posts: 4,067



Various Artists - The Australian Revolution (1993)
EAC Rip | FLAC (tracks+log+.cue) | 02:29:57 | 976 Mb
Pop, New Wave, Country, Pop Rock | Label: Mushroom Records


Tracklist:

Disc 1

1. Skyhooks - Women in Uniform (4:22)
2. The Sports - Who Listens to the Radio (3:15)
3. Split Enz - I Got You (3:29)
4. Ol' 55 - On the Prowl (3:00)
5. Sunnyboys - Alone with You (3:59)
6. Jo Jo Zep and The Falcons - Hit and Run (3:46)
7. The Dingoes - Way Out West (2:54)
8. Madder Lake - 12 lb. Toothbrush (3:50)
9. Matt Taylor - I Remember When I Was Young (3:59)
10. Stars - Mighty Rock (3:08)
11. The Angels - Don't Waste My Time (3:53)
12. Dave Warner From The Suburbs - Suburban Boy (2:45)
13. Jimmy Barnes - No Second Prize (4:24)
14. Choirboys - Run to Paradise (4:08)
15. Nick Barker and The Reptiles - Make Me Smile (3:52)
16. The Church - Under the Milky Way (4:58)
17. The Triffids - Wide Open Road (4:08)
18. Paul Kelly and The Coloured Girls - To Her Door (3:22)
19. The Go-Betweens - The Streets of Your Town (3:38)
20. The Saints - Just Like Fire Would (3:25)

Disc 2

1. Big Pig - Hungry Town (3:04)
2. Machinations - Pressure Sway (4:01)
3. Rockmelons - New Groove (4:36)
4. Models - Out of Mind Out of Sight (3:36)
5. The Swingers - Counting the Beat (3:03)
6. Dynamic Hepnotics - Soul Kind of Feeling (3:53)
7. Yothu Yindi - Mainstream (4:03)
8. Hunters & Collectors - Talking to a Stranger (3:53)
9. Renée Geyer - Say I Love You (3:34)
10. Jason Donovan - Nothing Can Divide Us (3:44)
11. James Freud - Modern Girl (3:21)
12. The Ferrets - Don't Fall in Love (3:12)
13. Angry Anderson - Suddenly (3:52)
14. Kids In The Kitchen - Change in Mood (3:43)
15. Indecent Obsession - Say Goodbye (4:06)
16. Chantoozies - Wanna Be Up (4:58)
17. Kylie Minogue - Locomotion (3:16)
18. Tim Finn - Fraction Too Much Friction (4:13)
19. Paul Norton - Stuck on You (3:38)
20. Ian Moss - Tucker's Daughter (4:34)


Download:

djukajlo is offline   Reply With Quote
Old 3 Weeks Ago, 01:24 PM   #39
Elder
Join Date: Feb 2016
Posts: 4,067



Artist: Blondie
Title: Parallel Lines (Deluxe Collector's Edition)
Year Of Release: 2008
Genre: Punk, New Wave, Pop
Quality: FLAC
Total Size: 450 mb


Tracklist:

01. Hanging On The Telephone (2001 Digital Remaster) 02:21
02. One Way Or Another (2001 - Remaster) 03:33
03. Picture This (2001 Digital Remaster) 02:55
04. Fade Away And Radiate (2001 Digital Remaster) 03:58
05. Pretty Baby (2001 Digital Remaster) 03:17
06. I Know But I Don't Know (2001 Digital Remaster) 03:55
07. 11:59 (2001 Digital Remaster) 03:20
08. Will Anything Happen (2001 Digital Remaster) 02:59
09. Sunday Girl (2001 Digital Remaster) 03:05
10. Heart Of Glass (2001 Digital Remaster) 05:48
11. I'm Gonna Love You Too (2001 Digital Remaster) 02:06
12. Just Go Away (2001 Digital Remaster) 03:24
13. Heart Of Glass 04:09
14. Sunday Girl (French version) 03:03
15. Hanging On The Telephone (Nosebleed Handbag remix) 06:13
16. Fade Away And Radiate (108 BPM mix) 05:15


Download:

djukajlo is offline   Reply With Quote
Old 3 Weeks Ago, 01:13 AM   #40
Elder
Join Date: Feb 2016
Posts: 4,067




Willie Nelson - God's Problem Child (2017)
Flac (tracks) | 00:44:20 | 254 Mb
Country, Rock, Alt. Country | Label: Sony Music Entertainment


Tracklist:

01. Little House on the Hill
02. Old Timer
03. True Love
04. Delete and Fast Forward
05. A Woman's Love
06. Your Memory Has a Mind of Its Own
07. Butterfly
08. Still Not Dead
09. God's Problem Child - Willie Nelson with Tony Joe White, Leon Russell & Jamey Johnson
10. It Gets Easier
11. Lady Luck
12. I Made a Mistake
13. He Won't Ever Be Gone


Download:


Last edited by djukajlo; 7 Hours Ago at 10:53 AM.
djukajlo is offline   Reply With Quote
Old 3 Weeks Ago, 01:32 AM   #41
Elder
Join Date: Feb 2016
Posts: 4,067


Brian May & Kerry Ellis - Golden Days (2017)
Flac (tracks) | Rock | 00:48:31 | 1CD | 301 Mb


Tracklist:

01. Love in a Rainbow 04:30
02. Roll with You 03:55
03. Golden Days 04:21
04. It's Gonna Be All Right (The Panic Attack Song) 03:45
05. Amazing Grace 02:48
06. One Voice 03:21
07. If I Loved You 03:33
08. Born Free 03:11
09. Parisienne Walkways 03:44
10. I Who Have Nothing 04:07
11. The Kissing Me Song 03:43
12. Story of a Heart 04:22
13. Can't Help Falling in Love 03:13


Download:


Last edited by djukajlo; 7 Hours Ago at 10:48 AM.
djukajlo is offline   Reply With Quote
Old 3 Weeks Ago, 10:07 AM   #42
Elder
Join Date: Feb 2016
Posts: 4,067




Fleetwood Mac - Heroes Are Hard To Find (1974-2017) [HDtracks]
2017 (1974-09-13) | Rhino / Warner Bros. Records
Pop/Rock, Blues Rock | FLAC (tracks) [24Bit/192kHz] | 39:50 | 1,56 Gb (Front Cover)


Tracklist:

01. Heroes Are Hard To Find (03:36)
02. Coming Home (03:54)
03. Angel (03:57)
04. Bermuda Triangle (04:10)
05. Come A Little Bit Closer (04:51)
06. She's Changing Me (03:00)
07. Bad Loser (03:27)
08. Silver Heels (03:29)
09. Prove Your Love (04:00)
10. Born Enchanter (02:56)
11. Safe Harbour (02:31)

--------------------------------------------------------------------------------
Analyzed: Fleetwood Mac / Heroes Are Hard To Find

DR Peak RMS Duration Track

DR10 -0.10 dB -11.75 dB 3:36 01-Heroes Are Hard To Find
DR10 -0.01 dB -12.16 dB 3:54 02-Coming Home
DR10 -0.01 dB -11.78 dB 3:57 03-Angel
DR11 -0.01 dB -12.97 dB 4:10 04-Bermuda Triangle
DR10 -0.01 dB -11.43 dB 4:51 05-Come A Little Bit Closer
DR10 -0.01 dB -11.78 dB 3:00 06-She's Changing Me
DR10 -0.01 dB -12.40 dB 3:27 07-Bad Loser
DR10 -0.01 dB -11.80 dB 3:29 08-Silver Heels
DR10 -0.01 dB -11.03 dB 4:00 09-Prove Your Love
DR10 -0.01 dB -11.99 dB 2:56 10-Born Enchanter
DR12 -0.01 dB -15.64 dB 2:31 11-Safe Harbour


Download:

djukajlo is offline   Reply With Quote
Reply


Thread Tools



All times are GMT -7. The time now is 06:19 PM.