> >

Post New Thread  Reply
 
Thread Tools
Old 07-30-12, 04:07 AM   #1
Novice
Join Date: May 2012
Posts: 172
Default The Dark Knight Rises 2012 TS XViD - INSPiRAL

The Dark Knight Rises 2012 TS XViD - INSPiRAL


IMDB:


SOURCES:

VIDEO - 26k source file ( cheers guys )
AUDIO - tooth fairy ( thanks to special friends )
SUBS - None Add

STATS:

Video
ID : 0
Format : MPEG-4 Visual
Format profile : Advanced Simple@L5
Format settings, BVOP : 2
Format settings, QPel : No
Format settings, GMC : No warppoints
Format settings, Matrix : Default (MPEG)
Muxing mode : Packed bitstream
Codec ID : XVID
Codec ID/Hint : XviD
Duration : 2h 36mn
Bit rate : 1 821 Kbps
Width : 720 pixels
Height : 288 pixels
Display aspect ratio : 2.500
Frame rate : 29.970 fps
Color space : YUV
Chroma subsampling : 4:2:0
Bit depth : 8 bits
Scan type : Progressive
Compression mode : Lossy
Bits/(Pixel*Frame) : 0.293
Stream size : 1.99 GiB (93%)
Writing library : XviD 64

Audio
ID : 1
Format : MPEG Audio
Format version : Version 1
Format profile : Layer 3
Mode : Joint stereo
Mode extension : MS Stereo
Codec ID : 55
Codec ID/Hint : MP3
Duration : 2h 36mn
Bit rate mode : Constant
Bit rate : 128 Kbps
Channel(s) : 2 channels
Sampling rate : 44.1 KHz
Compression mode : Lossy
Stream size : 143 MiB (7%)
Alignment : Split accross interleaves
Interleave, duration : 33 ms (1.00 video frame)
Interleave, preload duration : 500 ms



NOTES:

Ok we held fire until we were kindly given the raw files for both video and audio ....and now we can get the best
result we can and saves re-encoding the other xvid releases.
Video need to be straightened up a touch and was so grainy it was untrue ...colours were whacked aswell.
Basically it need some TLC,so fixed it up the best we could.
Audio was nice but had lot of noise to it so had too clean the audio by changing the EQ bands and also used a hiss removal
filter aswell.
Syncing was a pita as the audio wouldn't stretch right like normal but go there in the end by stretching and restretching.

Anyway ....enjoy until better sors come out :)


SCREENS:








yumming is offline  
Old 07-30-12, 07:22 PM   #2
Newcomer
Join Date: Apr 2011
Location: Canada
Posts: 29
Cool... thanks... dead links... but thanks..
CaptainComix is offline   Reply With Quote
Reply


Thread Tools



All times are GMT -7. The time now is 07:19 PM.
SEO by vBSEO ©2011, Crawlability, Inc.