> >

Post New Thread  Reply
 
Thread Tools
Old 05-18-13, 06:11 AM   #1
Legendary

Join Date: Oct 2010
Posts: 10,361
Film Fast And Furious 6 (2013) 720p CAM

==
Fast And Furious 6 (2013) 720p CAM-TheCod3r
File Size: 2.91 GiB
==




Quote:

General
Complete name : Fast.And.Furious.6.2013.720p.CAM-TheCod3r.mp4
Format : MPEG-4
Format profile : Base Media
Codec ID : isom
File size : 2.91 GiB
Duration : 2h 0mn
Overall bit rate : 3 451 Kbps
Writing application : Lavf54.6.100

Video
ID : 1
Format : MPEG-4 Visual
Format profile : Simple@L1
Format settings, BVOP : No
Format settings, QPel : No
Format settings, GMC : No warppoints
Format settings, Matrix : Default (H.263)
Codec ID : 20
Duration : 2h 0mn
Bit rate mode : Constant
Bit rate : 3 317 Kbps
Width : 1 280 pixels
Height : 720 pixels
Display aspect ratio : 16:9
Frame rate mode : Constant
Frame rate : 50.000 fps
Color space : YUV
Chroma subsampling : 4:2:0
Bit depth : 8 bits
Scan type : Progressive
Compression mode : Lossy
Bits/(Pixel*Frame) : 0.072
Stream size : 2.80 GiB (96%)
Writing library : Lavc54.23.100

Audio
ID : 2
Format : MPEG Audio
Format version : Version 1
Format profile : Layer 3
Mode : Joint stereo
Mode extension : MS Stereo
Codec ID : 6B
Duration : 2h 0mn
Bit rate mode : Constant
Bit rate : 128 Kbps
Channel(s) : 2 channels
Sampling rate : 48.0 KHz
Compression mode : Lossy
Stream size : 111 MiB (4%)










DOWNLOAD:
RobertoWarez is offline  
Old 05-18-13, 11:23 AM   #2
Hopeful

Join Date: Jan 2011
Posts: 66,092
Thanks!
spectra7.0 is offline   Reply With Quote
Old 05-18-13, 11:26 AM   #3
Newcomer
Join Date: May 2009
Location: NORTHERN PART
Posts: 58
thank you my friend
yenboy is offline   Reply With Quote
Old 05-18-13, 12:07 PM   #4
Newcomer

Join Date: Dec 2011
Location: CALIFORNIA
Posts: 80
Thanks.
MR_MARS is offline   Reply With Quote
Reply


Thread Tools



All times are GMT -7. The time now is 04:57 PM.
SEO by vBSEO ©2011, Crawlability, Inc.