> >

 
 
Thread Tools
Old 01-17-09, 02:49 AM   #1
Novice
Join Date: Sep 2007
Location: Harimau Malaya
Posts: 176
Default [MALAYSIA] My Malay Movies Collection

Deleted - digolbot..

Thank you for your supports guys and girls...

1Malaysia.. :D

Last edited by digolbot; 12-21-09 at 10:37 PM.
digolbot is offline  
Old 01-17-09, 04:44 AM   #2
Newcomer
Join Date: Aug 2008
Posts: 8
Default Re: [MALAYSIA] My Malay Movies Collection

Sweet, been hunting for these.
I'm Malaysian too anyway,
do you happen to have P.Ramlee Hang Tuah (in color)? I had hard time finding it.
MogiMogiMonster is offline  
Old 01-17-09, 05:23 AM   #3
Expert
Join Date: Jul 2008
Posts: 549
Default Re: [MALAYSIA] My Malay Movies Collection

wow..

really love to try them out,,,
denofdona is offline  
Old 01-17-09, 06:37 AM   #4
Newcomer
Join Date: Oct 2007
Location: Malaysia
Posts: 26
Default Re: [MALAYSIA] My Malay Movies Collection

Wahaha, thanks a lot :) Anyway, it's Tan Sri Dr P. Ramlee :P

Last edited by Deth; 01-17-09 at 06:41 AM.
Deth is offline  
Old 01-17-09, 10:19 AM   #5
Novice
Join Date: Sep 2007
Location: Harimau Malaya
Posts: 176
Default Re: [MALAYSIA] My Malay Movies Collection

Quote: Originally Posted by MogiMogiMonster View Post
Sweet, been hunting for these.
I'm Malaysian too anyway,
do you happen to have P.Ramlee Hang Tuah (in color)? I had hard time finding it.
:D ... same with me. Its hard to find that movie. Will keep searching..

Quote: Originally Posted by denofdona View Post
wow..

really love to try them out,,,
yes.. you have too..

Quote: Originally Posted by Deth View Post
Wahaha, thanks a lot :) Anyway, it's Tan Sri Dr P. Ramlee :P
Really? I didnt know that.. Edited... thanks mate..
digolbot is offline  
Old 01-18-09, 12:30 AM   #6
Kiddo

Join Date: Apr 2008
Posts: 556
Default Re: [MALAYSIA] My Malay Movies Collection

I'll contributed some of my malay / malaysian movies here... thanks to digolbot for opening this thread... cheers bro... :)
aryzs is offline  
Old 01-18-09, 12:41 AM   #7
Kiddo

Join Date: Apr 2008
Posts: 556
Film [RS]Bas Konduktor (1986) [DVD Rip]

Bas Konduktor (1986) [DVD Rip]





INFO
http://www.sinemamalaysia.com.my/baskonduktor
Language : Malay
Subtitle : None

Synopsis
The story revolves around the daily lives of workers at the bus exspres company. Hairani so happen was heading in the same direction as Pie and Maidin so they offered her a lift. As she arrives there she has no where to go and soon after is offered by them to stay at their female colleagues place. Hairani finally gets a job as a bus konduktor.

Bus Konduktor
      Format : AVI
      Format/Info : Audio Video Interleave
      File size : 700 MiB
      Duration : 1h 39mn
      Overall bit rate : 981 Kbps
   Video
      Format : MPEG-4 Visual
      Bit rate : 848 Kbps
      Width : 512 pixels
      Height : 384 pixels
      Display aspect ratio : 4/3
      Frame rate : 25.000 fps
      Resolution : 8 bits
      Colorimetry : 4:2:0
      Scan type : Progressive
      Bits/(Pixel*Frame) : 0.173
      Stream size : 605 MiB (86%)
   Audio
      Format : MPEG Audio
      Format version : Version 1
      Format profile : Layer 3
      Codec ID : 55
      Codec ID/Hint : MP3
      Duration : 1h 39mn
      Bit rate mode : Variable
      Bit rate : 120 Kbps
      Minimum bit rate : 128 Kbps
      Channel(s) : 2 channels
      Sampling rate : 48.0 KHz
      Resolution : 16 bits
      Stream size : 85.8 MiB (12%)
      Alignment : Aligned on interleaves
      Interleave, duration : 24 ms (0.60 video frame)
      Interleave, preload duration : 513 ms
      Writing library : LAME3.97 
      Encoding settings : ABR


http://rapidshare.com/files/184237080/BSKNDKTR_DVD_Rip_Aryzs_Properties.part1.rar
http://rapidshare.com/files/184236815/BSKNDKTR_DVD_Rip_Aryzs_Properties.part2.rar
http://rapidshare.com/files/184279508/BSKNDKTR_DVD_Rip_Aryzs_Properties.part3.rar
http://rapidshare.com/files/184279913/BSKNDKTR_DVD_Rip_Aryzs_Properties.part4.rar
http://rapidshare.com/files/184364366/BSKNDKTR_DVD_Rip_Aryzs_Properties.part5.rar
http://rapidshare.com/files/184366997/BSKNDKTR_DVD_Rip_Aryzs_Properties.part6.rar
http://rapidshare.com/files/184447860/BSKNDKTR_DVD_Rip_Aryzs_Properties.part7.rar
http://rapidshare.com/files/184453377/BSKNDKTR_DVD_Rip_Aryzs_Properties.part8.rar

No Password

Enjoy... :)
aryzs is offline  
Old 01-18-09, 12:44 AM   #8
Kiddo

Join Date: Apr 2008
Posts: 556
Film Re: [MALAYSIA] My Malay Movies Collection

Balik Kampung (1986) [DVD Rip]





Synopsis
A group of youngsters migrate to the city after hearing that life there is more exciting. They found the situation quite the contrary. They go through various trepidationís of life which later serves as a lesson to other village youngsters while at the same time arousing the nostalgiaís of those who have experienced the situation before.

Language : Malay
Subtitle : None

Balik Kampung
      Format : AVI
      Format/Info : Audio Video Interleave
      File size : 698 MiB
      Duration : 1h 39mn
      Overall bit rate : 983 Kbps
   Video
      Format : MPEG-4 Visual
      Bit rate : 864 Kbps
      Width : 448 pixels
      Height : 336 pixels
      Display aspect ratio : 4/3
      Frame rate : 29.970 fps
      Resolution : 8 bits
      Colorimetry : 4:2:0
      Scan type : Progressive
      Bits/(Pixel*Frame) : 0.191
   Audio
      Format : MPEG Audio
      Format version : Version 1
      Format profile : Layer 3
      Codec ID : 55
      Codec ID/Hint : MP3
      Duration : 1h 39mn
      Bit rate mode : Variable
      Bit rate : 105 Kbps
      Minimum bit rate : 128 Kbps
      Channel(s) : 2 channels
      Sampling rate : 48.0 KHz
      Resolution : 16 bits
      Stream size : 74.7 MiB (11%)
      Alignment : Aligned on interleaves
      Interleave, duration : 24 ms (0.72 video frame)
      Interleave, preload duration : 511 ms
      Writing library : LAME3.97 
      Encoding settings : ABR

http://rapidshare.com/files/184659146/BLKKMPG_DVD_Rip_Aryzs_Properties.part1.rar
http://rapidshare.com/files/184665954/BLKKMPG_DVD_Rip_Aryzs_Properties.part2.rar
http://rapidshare.com/files/184948705/BLKKMPG_DVD_Rip_Aryzs_Properties.part3.rar
http://rapidshare.com/files/184978265/BLKKMPG_DVD_Rip_Aryzs_Properties.part4.rar
http://rapidshare.com/files/185026057/BLKKMPG_DVD_Rip_Aryzs_Properties.part5.rar
http://rapidshare.com/files/185050491/BLKKMPG_DVD_Rip_Aryzs_Properties.part6.rar
http://rapidshare.com/files/185098375/BLKKMPG_DVD_Rip_Aryzs_Properties.part7.rar
http://rapidshare.com/files/184654099/BLKKMPG_DVD_Rip_Aryzs_Properties.part8.rar

No Password

Enjoy... :)
aryzs is offline  
Old 01-18-09, 12:46 AM   #9
Kiddo

Join Date: Apr 2008
Posts: 556
Film Toll Gate Girl (2001) [VCD Rip]

Toll Gate Girl (2001) [VCD Rip]







Language : Malay
Subtitle : None

Toll Gate Girl
      Format : AVI
      Format/Info : Audio Video Interleave
      File size : 669 MiB
      Duration : 1h 52mn
      Overall bit rate : 830 Kbps
      Writing library : MPlayer
   Video
      Format : MPEG-4 Visual
      Duration : 1h 52mn
      Bit rate : 729 Kbps
      Width : 352 pixels
      Height : 288 pixels
      Display aspect ratio : 4/3
      Frame rate : 23.976 fps
      Resolution : 8 bits
      Colorimetry : 4:2:0
      Scan type : Progressive
      Bits/(Pixel*Frame) : 0.300
      Stream size : 588 MiB (88%)
   Audio
      Format : MPEG Audio
      Format version : Version 1
      Format profile : Layer 3
      Codec ID : 55
      Codec ID/Hint : MP3
      Duration : 1h 52mn
      Bit rate mode : Constant
      Bit rate : 96.0 Kbps
      Channel(s) : 2 channels
      Sampling rate : 44.1 KHz
      Resolution : 16 bits
      Stream size : 77.4 MiB (12%)
      Alignment : Split accross interleaves
      Interleave, duration : 500 ms (11.99 video frames)
      Interleave, preload duration : 500 ms

http://rapidshare.com/files/184523095/TLLGTEGRL_VCD_Rip_Aryzs_Properties.part1.rar
http://rapidshare.com/files/184557708/TLLGTEGRL_VCD_Rip_Aryzs_Properties.part2.rar
http://rapidshare.com/files/184582835/TLLGTEGRL_VCD_Rip_Aryzs_Properties.part3.rar
http://rapidshare.com/files/184614732/TLLGTEGRL_VCD_Rip_Aryzs_Properties.part4.rar
http://rapidshare.com/files/184630175/TLLGTEGRL_VCD_Rip_Aryzs_Properties.part5.rar
http://rapidshare.com/files/184643711/TLLGTEGRL_VCD_Rip_Aryzs_Properties.part6.rar
http://rapidshare.com/files/184469452/TLLGTEGRL_VCD_Rip_Aryzs_Properties.part7.rar

No Password

Enjoy... :)

Last edited by aryzs; 01-18-09 at 12:58 AM.
aryzs is offline  
Old 01-19-09, 06:51 AM   #10
Apprentice

Join Date: Jul 2008
Location: Machang, Kelantan
Posts: 429
Default [RS] Kembara Seniman Jalanan (1986) DVDRip



A Malaysian movie about a young musician whose making his journey to achieve his dream. This movie is making quite an impact in the industry back in the late 80's..

Format/Family : MPEG-2
File size : 1.82 GiB
PlayTime : 2h 7mn
Bit rate : 2046 Kbps
Codec : MPEG-2 Video
Codec profile : Main@Main
Codec settings/Matrix : Standard
PlayTime : 2h 7mn
Bit rate : 3500 Kbps
Bit rate mode : CBR
Width : 720 pixels
Height : 576 pixels
Display Aspect ratio : 4/3
Frame rate : 25.000 fps
Standard : PAL
Chroma : 4:2:0
Interlacement : Progressive
Bits/(Pixel*Frame) : 0.338
Codec : AC3
PlayTime : 2h 7mn
Bit rate : 256 Kbps
Bit rate mode : CBR
Channel(s) : 2 channels
Channel positions : L R
Sampling rate : 48 KHz








http://rapidshare.com/files/178377157/Kembara_Seniman_Jalanan.part01.rar
http://rapidshare.com/files/178377155/Kembara_Seniman_Jalanan.part02.rar
http://rapidshare.com/files/178377142/Kembara_Seniman_Jalanan.part03.rar
http://rapidshare.com/files/178386507/Kembara_Seniman_Jalanan.part04.rar
http://rapidshare.com/files/178582782/Kembara_Seniman_Jalanan.part05.rar
http://rapidshare.com/files/178584144/Kembara_Seniman_Jalanan.part06.rar
http://rapidshare.com/files/178582812/Kembara_Seniman_Jalanan.part07.rar
http://rapidshare.com/files/178584128/Kembara_Seniman_Jalanan.part08.rar
http://rapidshare.com/files/178613083/Kembara_Seniman_Jalanan.part09.rar
http://rapidshare.com/files/178449537/Kembara_Seniman_Jalanan.part10.rar
http://rapidshare.com/files/178468597/Kembara_Seniman_Jalanan.part11.rar
http://rapidshare.com/files/178468577/Kembara_Seniman_Jalanan.part12.rar
http://rapidshare.com/files/178468589/Kembara_Seniman_Jalanan.part13.rar
http://rapidshare.com/files/178468548/Kembara_Seniman_Jalanan.part14.rar
http://rapidshare.com/files/178501295/Kembara_Seniman_Jalanan.part15.rar
http://rapidshare.com/files/178581821/Kembara_Seniman_Jalanan.part16.rar
http://rapidshare.com/files/178538571/Kembara_Seniman_Jalanan.part17.rar
http://rapidshare.com/files/178538935/Kembara_Seniman_Jalanan.part18.rar
http://rapidshare.com/files/178539010/Kembara_Seniman_Jalanan.part19.rar

Last edited by waemesul; 02-05-09 at 04:17 AM.
waemesul is offline  
Old 01-19-09, 06:57 AM   #11
Apprentice

Join Date: Jul 2008
Location: Machang, Kelantan
Posts: 429
Default [RS] Da Di Du (A.R Badul) DVDRip






http://rapidshare.com/files/179094631/dadiduwaemesul.part1.rar

http://rapidshare.com/files/179096028/dadiduwaemesul.part2.rar
http://rapidshare.com/files/179097084/dadiduwaemesul.part3.rar
http://rapidshare.com/files/179101054/dadiduwaemesul.part4.rar
http://rapidshare.com/files/179101044/dadiduwaemesul.part5.rar
http://rapidshare.com/files/179101049/dadiduwaemesul.part6.rar
http://rapidshare.com/files/179101056/dadiduwaemesul.part7.rar
http://rapidshare.com/files/179151150/dadiduwaemesul.part8.rar

Last edited by waemesul; 02-05-09 at 04:18 AM.
waemesul is offline  
Old 01-19-09, 07:09 AM   #12
Apprentice

Join Date: Jul 2008
Location: Machang, Kelantan
Posts: 429
Default [RS] Cinta dan Lagu (1976)






http://rapidshare.com/files/124361023/Cinta_dan_Lagu_waemesul.avi.001

http://rapidshare.com/files/124360933/Cinta_dan_Lagu_waemesul.avi.002

http://rapidshare.com/files/124361023/Cinta_dan_Lagu_waemesul.avi.003

http://rapidshare.com/files/124363111/Cinta_dan_Lagu_waemesul.avi.004

http://rapidshare.com/files/124371396/Cinta_dan_Lagu_waemesul.avi.005

http://rapidshare.com/files/124363632/Cinta_dan_Lagu_waemesul.avi.006

Last edited by waemesul; 01-19-09 at 07:18 AM.
waemesul is offline  
Old 01-19-09, 07:15 AM   #13
Apprentice

Join Date: Jul 2008
Location: Machang, Kelantan
Posts: 429
Default [RS] Dendang Perantau (1980) VCDRip




http://rapidshare.com/files/124464988/Dendang_Perantau_waemesul.avi.001
http://rapidshare.com/files/124464696/Dendang_Perantau_waemesul.avi.002
http://rapidshare.com/files/124463902/Dendang_Perantau_waemesul.avi.003
http://rapidshare.com/files/124448272/Dendang_Perantau_waemesul.avi.004
waemesul is offline  
Old 01-19-09, 07:36 AM   #14
Apprentice

Join Date: Jul 2008
Location: Machang, Kelantan
Posts: 429
Default [RS] Hapuslah Airmatamu (1976) VCDRip








http://rapidshare.com/files/143593874/Hapuslah_Air_MataMu_.part1.rar
http://rapidshare.com/files/143561100/Hapuslah_Air_MataMu_.part2.rar
http://rapidshare.com/files/143560436/Hapuslah_Air_MataMu_.part3.rar
http://rapidshare.com/files/143561073/Hapuslah_Air_MataMu_.part4.rar
http://rapidshare.com/files/143560709/Hapuslah_Air_MataMu_.part5.rar
http://rapidshare.com/files/143551637/Hapuslah_Air_MataMu_.part6.rar
http://rapidshare.com/files/143552341/Hapuslah_Air_MataMu_.part7.rar
http://rapidshare.com/files/143596409/Hapuslah_Air_MataMu_.part8.rar
http://rapidshare.com/files/143590943/Hapuslah_Air_MataMu_.part9.rar
http://rapidshare.com/files/143594192/Hapuslah_Air_MataMu_.part10.rar
http://rapidshare.com/files/143595054/Hapuslah_Air_MataMu_.part11.rar
http://rapidshare.com/files/143582888/Hapuslah_Air_MataMu_.part12.rar
waemesul is offline  
 


Thread Tools



All times are GMT -7. The time now is 06:02 AM.
SEO by vBSEO ©2011, Crawlability, Inc.