> >

 
 
Thread Tools
Old 06-28-12, 02:40 AM   #1
Master
Join Date: Jan 2011
Posts: 1,314
Default American Reunion 2012 UNRATED DVDRip XviD-COCAIN






CD 1
 General
 Complete name                            : American.Reunion.UNRATED.DVDRip.XviD.CD1-COCAIN.avi
 Format                                   : AVI
 Format/Info                              : Audio Video Interleave
 File size                                : 700 MiB
 Duration                                 : 57mn 33s
 Overall bit rate                         : 1 701 Kbps

 Video
 ID                                       : 0
 Format                                   : MPEG-4 Visual
 Format profile                           : Advanced Simple@L5
 Format settings, BVOP                    : 2
 Format settings, QPel                    : No
 Format settings, GMC                     : No warppoints
 Format settings, Matrix                  : Default (H.263)
 Codec ID                                 : XVID
 Codec ID/Hint                            : XviD
 Duration                                 : 57mn 33s
 Bit rate                                 : 1 244 Kbps
 Width                                    : 624 pixels
 Height                                   : 336 pixels
 Display aspect ratio                     : 1.857
 Frame rate                               : 23.976 fps
 Color space                              : YUV
 Chroma subsampling                       : 4:2:0
 Bit depth                                : 8 bits
 Scan type                                : Progressive
 Compression mode                         : Lossy
 Bits/(Pixel*Frame)                       : 0.247
 Stream size                              : 512 MiB (73%)
 Writing library                          : XviD 1.2.1 (UTC 2008-12-04)

 Audio
 ID                                       : 1
 Format                                   : AC-3
 Format/Info                              : Audio Coding 3
 Mode extension                           : CM (complete main)
 Codec ID                                 : 2000
 Duration                                 : 57mn 33s
 Source duration                          : 57mn 33s
 Bit rate mode                            : Constant
 Bit rate                                 : 448 Kbps
 Channel(s)                               : 6 channels
 Channel positions                        : Front: L C R, Side: L R, LFE
 Sampling rate                            : 48.0 KHz
 Bit depth                                : 16 bits
 Compression mode                         : Lossy
 Stream size                              : 184 MiB (26%)
 Alignment                                : Aligned on interleaves
 Interleave, duration                     : 42 ms (1.00 video frame)

 CD 2
 General
 Complete name                            : American.Reunion.UNRATED.DVDRip.XviD.CD2-COCAIN.avi
 Format                                   : AVI
 Format/Info                              : Audio Video Interleave
 File size                                : 700 MiB
 Duration                                 : 56mn 15s
 Overall bit rate                         : 1 740 Kbps

 Video
 ID                                       : 0
 Format                                   : MPEG-4 Visual
 Format profile                           : Advanced Simple@L5
 Format settings, BVOP                    : 2
 Format settings, QPel                    : No
 Format settings, GMC                     : No warppoints
 Format settings, Matrix                  : Default (H.263)
 Codec ID                                 : XVID
 Codec ID/Hint                            : XviD
 Duration                                 : 56mn 15s
 Bit rate                                 : 1 283 Kbps
 Width                                    : 624 pixels
 Height                                   : 336 pixels
 Display aspect ratio                     : 1.857
 Frame rate                               : 23.976 fps
 Color space                              : YUV
 Chroma subsampling                       : 4:2:0
 Bit depth                                : 8 bits
 Scan type                                : Progressive
 Compression mode                         : Lossy
 Bits/(Pixel*Frame)                       : 0.255
 Stream size                              : 516 MiB (74%)
 Writing library                          : XviD 1.2.1 (UTC 2008-12-04)

 Audio
 ID                                       : 1
 Format                                   : AC-3
 Format/Info                              : Audio Coding 3
 Mode extension                           : CM (complete main)
 Codec ID                                 : 2000
 Duration                                 : 56mn 15s
 Source duration                          : 56mn 15s
 Bit rate mode                            : Constant
 Bit rate                                 : 448 Kbps
 Channel(s)                               : 6 channels
 Channel positions                        : Front: L C R, Side: L R, LFE
 Sampling rate                            : 48.0 KHz
 Bit depth                                : 16 bits
 Compression mode                         : Lossy
 Stream size                              : 180 MiB (26%)
 Alignment                                : Aligned on interleaves
 Interleave, duration                     : 42 ms (1.00 video frame)



 iMDB: http://www.imdb.com/title/tt1605630/










http://www.netload.in/dateijHV2RQoXoq/American.Reunion.UNRATED.DVDRip.XviD.CD2-COCAIN.avi.htm
http://www.netload.in/dateizDdkmQVxOx/American.Reunion.UNRATED.DVDRip.XviD.CD1-COCAIN.avi.htm


http://extabit.com/file/28dr7qgbmgnja/American.Reunion.UNRATED.DVDRip.XviD.CD2-COCAIN.avi
http://extabit.com/file/28dr7qgbmgkhy/American.Reunion.UNRATED.DVDRip.XviD.CD1-COCAIN.avi


http://turbobit.net/m480pipbqykb/American.Reunion.UNRATED.DVDRip.XviD.CD1-COCAIN.avi.html
http://turbobit.net/gsxgjphflcv2/American.Reunion.UNRATED.DVDRip.XviD.CD2-COCAIN.avi.html


http://unextfiles.com/m480pipbqykb/American.Reunion.UNRATED.DVDRip.XviD.CD1-COCAIN.avi.html
http://unextfiles.com/gsxgjphflcv2/American.Reunion.UNRATED.DVDRip.XviD.CD2-COCAIN.avi.html


http://rapidgator.net/file/21611284/American.Reunion.UNRATED.DVDRip.XviD.CD1-COCAIN.avi.html
http://rapidgator.net/file/21611281/American.Reunion.UNRATED.DVDRip.XviD.CD2-COCAIN.avi.html


http://www.filefactory.com/file/drqkdkvifcv/n/American_Reunion_UNRATED_DVDRip_XviD_CD2-COCAIN_avi
http://www.filefactory.com/file/cy784yhl31f/n/American_Reunion_UNRATED_DVDRip_XviD_CD1-COCAIN_avi


http://bitshare.com/files/oim2gch5/American.Reunion.UNRATED.DVDRip.XviD.CD2-COCAIN.avi.html
http://bitshare.com/files/7wx9ki7w/American.Reunion.UNRATED.DVDRip.XviD.CD1-COCAIN.avi.html

Last edited by bestrun; 06-28-12 at 10:29 AM.
bestrun is offline  
Old 06-28-12, 10:30 AM   #2
Master
Join Date: Jan 2011
Posts: 1,314
bitshare link added
bestrun is offline  
Old 06-28-12, 11:18 AM   #3
IPK
Novice
Join Date: Feb 2011
Posts: 237
sweet! thnx,..
IPK is offline  
Old 07-04-12, 09:21 PM   #4
Newcomer
Join Date: Oct 2011
Posts: 53
Thanks bestrun!!!
mauricio_rl is offline  
 


Thread Tools



All times are GMT -7. The time now is 10:25 AM.
SEO by vBSEO ©2011, Crawlability, Inc.