> >

 
 
Thread Tools
Old 04-15-11, 02:42 AM   #1
Apprentice
Join Date: Jul 2008
Posts: 275
Default The Offspring - Conspiracy Of One (2000)



Info
---------------------------------------------------------------------
                  The Offspring - Conspiracy Of One
---------------------------------------------------------------------

Artist...............: The Offspring
Album................: Conspiracy Of One
Genre................: Rock
Source...............: CD
Year.................: 2000
Ripper...............: EAC (Secure mode) / FLAC & Optiarc DVD RW AD-7201S
Codec................: Free Lossless Audio Codec (FLAC)
Version..............: reference libFLAC 1.2.1 20070917
Quality..............: Lossless, (avg. compression: 74 %)
Channels.............: Stereo / 44100 HZ / 16 Bit
Tags.................: ID3 v1.0VorbisComment

Ripped by............: Steve O on 27/10/2009
Posted by............: Steve O on 27/10/2009

Included.............: NFO, MD5, M3U, LOG, CUE
Covers...............: Front Back CD 

---------------------------------------------------------------------
                       Tracklisting
---------------------------------------------------------------------

   1. (00:00:05) The Offspring - Intro
   2. (00:02:47) The Offspring - Come Out Swinging
   3. (00:03:41) The Offspring - Original Prankster
   4. (00:03:23) The Offspring - Want You Bad
   5. (00:03:40) The Offspring - Million Miles Away
   6. (00:02:49) The Offspring - Dammit, I Changed Again
   7. (00:03:28) The Offspring - Living In Chaos
   8. (00:03:00) The Offspring - Special Delivery
   9. (00:02:45) The Offspring - One Fine Day
  10. (00:01:39) The Offspring - All Along
  11. (00:04:33) The Offspring - Denial, Revisited
  12. (00:03:34) The Offspring - Vultures
  13. (00:02:17) The Offspring - Conspiracy Of One
  14. (00:02:39) The Offspring - Huck It

Playing Time.........: 00:40:20
Total Size...........: 305.15 MB

NFO generated on.....: 27/10/2009 17:08:39

Enjoy!
[SPOILER="EAC LOG"]Exact Audio Copy V0.99 prebeta 5 from 4. May 2009

EAC extraction logfile from 27. October 2009, 16:34

The Offspring / Conspiracy Of One

Used drive : Optiarc DVD RW AD-7201S Adapter: 2 ID: 1

Read mode : Secure
Utilize accurate stream : Yes
Defeat audio cache : Yes
Make use of C2 pointers : No

Read offset correction : 48
Overread into Lead-In and Lead-Out : No
Fill up missing offset samples with silence : Yes
Delete leading and trailing silent blocks : No
Null samples used in CRC calculations : Yes
Used interface : Native Win32 interface for Win NT & 2000
Gap handling : Appended to previous track

Used output format : User Defined Encoder
Selected bitrate : 768 kBit/s
Quality : High
Add ID3 tag : Yes
Command line compressor : C:\Program Files\FLAC\flac.exe
Additional command line options : -8 -V -T "artist=%a" -T "title=%t" -T "album=%g" -T "date=%y" -T"tracknumber=%n" -T "genre=%m" -T comment="%e" -T "comment=EAC-Secure Mode" %s


TOC of the extracted CD

Track | Start | Length | Start sector | End sector
---------------------------------------------------------
1 | 0:00.00 | 0:05.13 | 0 | 387
2 | 0:05.13 | 2:47.17 | 388 | 12929
3 | 2:52.30 | 3:40.71 | 12930 | 29500
4 | 6:33.26 | 3:22.44 | 29501 | 44694
5 | 9:55.70 | 3:39.59 | 44695 | 61178
6 | 13:35.54 | 2:48.67 | 61179 | 73845
7 | 16:24.46 | 3:28.24 | 73846 | 89469
8 | 19:52.70 | 3:00.34 | 89470 | 103003
9 | 22:53.29 | 2:45.11 | 103004 | 115389
10 | 25:38.40 | 1:38.47 | 115390 | 122786
11 | 27:17.12 | 4:32.57 | 122787 | 143243
12 | 31:49.69 | 3:34.14 | 143244 | 159307
13 | 35:24.08 | 2:17.01 | 159308 | 169583
14 | 37:41.09 | 2:38.63 | 169584 | 181496
15 | 42:51.72 | 25:37.66 | 192897 | 308237


Track 1

Filename C:\Users\Steve\Music\The Offspring - Conspiracy Of One\01. Intro.wav

Pre-gap length 0:00:02.00

Peak level 56.0 %
Track quality 100.0 %
Copy CRC A9D78C6F
Track not present in AccurateRip database
Copy OK

Track 2

Filename C:\Users\Steve\Music\The Offspring - Conspiracy Of One\02. Come Out Swinging.wav

Peak level 98.8 %
Track quality 100.0 %
Copy CRC DD1A4C03
Accurately ripped (confidence 32) [F79437B0]
Copy OK

Track 3

Filename C:\Users\Steve\Music\The Offspring - Conspiracy Of One\03. Original Prankster.wav

Peak level 94.4 %
Track quality 100.0 %
Copy CRC AC41679B
Accurately ripped (confidence 31) [6D329A6E]
Copy OK

Track 4

Filename C:\Users\Steve\Music\The Offspring - Conspiracy Of One\04. Want You Bad.wav

Peak level 94.4 %
Track quality 99.9 %
Copy CRC BE9ACC92
Accurately ripped (confidence 32) [91044465]
Copy OK

Track 5

Filename C:\Users\Steve\Music\The Offspring - Conspiracy Of One\05. Million Miles Away.wav

Peak level 95.5 %
Track quality 100.0 %
Copy CRC 72663BD5
Accurately ripped (confidence 32) [A5C58302]
Copy OK

Track 6

Filename C:\Users\Steve\Music\The Offspring - Conspiracy Of One\06. Dammit, I Changed Again.wav

Peak level 98.8 %
Track quality 100.0 %
Copy CRC 46D3809F
Accurately ripped (confidence 32) [39A3332F]
Copy OK

Track 7

Filename C:\Users\Steve\Music\The Offspring - Conspiracy Of One\07. Living In Chaos.wav

Peak level 98.8 %
Track quality 100.0 %
Copy CRC 71A7FB2B
Accurately ripped (confidence 31) [D8847A19]
Copy OK

Track 8

Filename C:\Users\Steve\Music\The Offspring - Conspiracy Of One\08. Special Delivery.wav

Peak level 98.8 %
Track quality 100.0 %
Copy CRC DD036165
Accurately ripped (confidence 32) [FD88E3CF]
Copy OK

Track 9

Filename C:\Users\Steve\Music\The Offspring - Conspiracy Of One\09. One Fine Day.wav

Peak level 95.5 %
Track quality 100.0 %
Copy CRC 619862A0
Accurately ripped (confidence 32) [A2982DDD]
Copy OK

Track 10

Filename C:\Users\Steve\Music\The Offspring - Conspiracy Of One\10. All Along.wav

Peak level 98.8 %
Track quality 99.8 %
Copy CRC 03F2C9B0
Accurately ripped (confidence 32) [2C426579]
Copy OK

Track 11

Filename C:\Users\Steve\Music\The Offspring - Conspiracy Of One\11. Denial, Revisited.wav

Peak level 98.8 %
Track quality 100.0 %
Copy CRC E989E628
Accurately ripped (confidence 32) [E410FB38]
Copy OK

Track 12

Filename C:\Users\Steve\Music\The Offspring - Conspiracy Of One\12. Vultures.wav

Peak level 98.8 %
Track quality 99.9 %
Copy CRC 0D1587B0
Accurately ripped (confidence 29) [673DDF48]
Copy OK

Track 13

Filename C:\Users\Steve\Music\The Offspring - Conspiracy Of One\13. Conspiracy Of One.wav

Peak level 98.8 %
Track quality 100.0 %
Copy CRC 6D964D4B
Accurately ripped (confidence 31) [A67ECAB8]
Copy OK

Track 14

Filename C:\Users\Steve\Music\The Offspring - Conspiracy Of One\14. Huck It.wav

Peak level 100.0 %
Track quality 100.0 %
Copy CRC 7578E410
Accurately ripped (confidence 30) [9A34DE8A]
Copy OK


13 track(s) accurately ripped
1 track(s) not present in the AccurateRip database

Some tracks could not be verified as accurate

No errors occurred

End of status report[/SPOILER]

Download
http://www.fileserve.com/file/hXsZNBX
http://www.fileserve.com/file/t7JSNpJ
http://www.fileserve.com/file/fAZHbF3
http://www.fileserve.com/file/VdxC6Rh
steveagooner is offline  
Old 08-29-11, 06:45 PM   #2
Novice
Join Date: Oct 2010
Posts: 185
thanky you! u was looking for this album. Thanks a lot!
j0selill0 is offline  
Old 08-31-11, 09:44 PM   #3
Apprentice
Join Date: Aug 2007
Posts: 270
Thank you....
Peace
TJGSB is offline  
 


Thread Tools



All times are GMT -7. The time now is 04:14 AM.
SEO by vBSEO ©2011, Crawlability, Inc.